磁力链接吧

 找回密码
 立即注册
搜索

[喜剧片] [BT下载]尼姆岛/尼魔岛/魔岛传奇 Nims.Island.2008.1080p.BluRay.x264.DTS-FGT 11.97G ...

[复制链接]
电影首发 发表于 2016-3-15 08:37:00 | 显示全部楼层 |阅读模式

译  名 尼姆岛/尼魔岛/魔岛传奇/妮姆之岛/魔岛历险
片  名 Nim's Island
年  代 2008
国  家 美国
类  别 喜剧/奇幻/冒险
语  言 英语
上映日期 2008-03-30
导  演 Jennifer Flackett
主  演 阿比盖尔·布蕾斯琳 Abigail Breslin
      朱迪·福斯特 Jodie Foster
      杰拉德·巴特勒 Gerard Butler
      Michael Carman
      Christopher Baker
      Anthony Simcoe


简  介


  小女孩尼姆(阿比盖尔·布瑞斯林 Abigail Breslin 饰)和科学家父亲杰克(杰拉德·巴特勒 Gerard Butler 饰)一起生活在一个小岛上,父亲埋头在岛屿的科研工作,而孤独的尼姆每日把岛屿的一切幻想成绚丽多彩的冒险,倒也乐在其中。尼姆最爱读畅销冒险作家艾利克斯·卢文的书,在她的幻想中,他是个和父亲面目一样的英雄,带着她畅游这个世界。但是尼姆所不了解的是,“卢文”英雄形象背后其实是个心理问题严重的女作家(朱迪·福斯特 Jodie Foster 饰),她有严重的社交恐惧症、广场恐惧症,因此只能在大城市纽约以半隐居方式埋头写作,连走出自己房间都很困难。一日父亲杰克出海工作却几日未归,担忧的尼姆只好给心目中的大英雄卢文发邮件求救,为了遥远孤岛上的小女孩,足不出户的女作家鼓起勇气踏上前往尼姆岛的路途……


Video
ID                                       : 1
Format                                   : AVC
Format/Info                              : Advanced Video Codec
Format profile                           : [email protected]
Format settings, CABAC                   : Yes
Format settings, ReFrames                : 5 frames
Codec ID                                 : V_MPEG4/ISO/AVC
Duration                                 : 1h 35mn
Bit rate                                 : 16.4 Mbps
Width                                    : 1 920 pixels
Height                                   : 800 pixels
Display aspect ratio                     : 2.40:1
Frame rate mode                          : Constant
Frame rate                               : 23.976 (24000/1001) fps
Color space                              : YUV
Chroma subsampling                       : 4:2:0
Bit depth                                : 8 bits
Scan type                                : Progressive
Bits/(Pixel*Frame)                       : 0.446
Stream size                              : 10.7 GiB (90%)
Writing library                          : x264 core 125 r2200kMod 999b753
Encoding settings                        : cabac=1 / ref=5 / deblock=1:-3:-3 / analyse=0x3:0x133 / me=umh / subme=11 / psy=1 / fade_compensate=0.00 / psy_rd=1.00:0.05 / mixed_ref=1 / me_range=48 / chroma_me=1 / trellis=2 / 8x8dct=1 / cqm=0 / deadzone=21,11 / fast_pskip=0 / chroma_qp_offset=-3 / threads=12 / lookahead_threads=2 / sliced_threads=0 / nr=0 / decimate=0 / interlaced=0 / bluray_compat=0 / constrained_intra=0 / bframes=10 / b_pyramid=2 / b_adapt=2 / b_bias=0 / direct=3 / weightb=1 / open_gop=0 / weightp=2 / keyint=240 / keyint_min=23 / scenecut=40 / intra_refresh=0 / rc=2pass / mbtree=0 / bitrate=16433 / ratetol=1.0 / qcomp=0.60 / qpmin=0 / qpmax=69 / qpstep=4 / cplxblur=20.0 / qblur=0.5 / ip_ratio=1.40 / pb_ratio=1.30 / aq=1:0.80 / zones=131068,137568,b=0.25
Language                                 : English
Default                                  : Yes
Forced                                   : No
Color range                              : Limited
Color primaries                          : BT.709
Transfer characteristics                 : BT.709
Matrix coefficients                      : BT.709

Audio
ID                                       : 2
Format                                   : DTS
Format/Info                              : Digital Theater Systems
Mode                                     : 16
Format settings, Endianness              : Big
Codec ID                                 : A_DTS
Duration                                 : 1h 35mn
Bit rate mode                            : Constant
Bit rate                                 : 1 509 Kbps
Channel(s)                               : 6 channels
Channel positions                        : Front: L C R, Side: L R, LFE
Sampling rate                            : 48.0 KHz
Frame rate                               : 93.750 fps (512 spf)
Bit depth                                : 24 bits
Compression mode                         : Lossy
Stream size                              : 1.01 GiB (8%)
Language                                 : English
Default                                  : No
Forced                                   : No

Text
ID                                       : 3
Format                                   : UTF-8
Codec ID                                 : S_TEXT/UTF8
Codec ID/Info                            : UTF-8 Plain Text
Language                                 : English
Default                                  : No
Forced                                   : No

Menu
00:00:00.000                             : :00:00:00.000
00:05:38.713                             : :00:05:38.713
00:10:21.120                             : :00:10:21.120
00:15:49.490                             : :00:15:49.490
00:22:17.127                             : :00:22:17.127
00:26:03.145                             : :00:26:03.145
00:29:16.713                             : :00:29:16.713
00:34:33.280                             : :00:34:33.280
00:37:51.811                             : :00:37:51.811
00:42:06.983                             : :00:42:06.983
00:47:27.470                             : :00:47:27.470
00:54:02.114                             : :00:54:02.114
00:59:27.731                             : :00:59:27.731
01:02:15.357                             : :01:02:15.357
01:05:55.201                             : :01:05:55.201
01:11:01.924                             : :01:11:01.924
01:14:28.923                             : :01:14:28.923
01:17:51.667                             : :01:17:51.667
01:25:34.796                             : :01:25:34.796
01:28:36.811                             : :01:28:36.811






                                                                                                                                                                                                       

                                                                                                                       
                                                                                                                                                                                                                                                        Nims.Island.2008.1080p.BluRay.x264.DTS-FGT.torrent (60.43 KB, 下载次数: 62)

回复

使用道具 举报

小黑屋|磁力链接吧 |网站地图

本网站所有资源来自网络,如无意中侵犯了您的权益,请发邮件至 [email protected],立即清除相关链接

GMT+8, 2021-3-3 16:15 , Processed in 0.103272 second(s), 23 queries .

Powered by Discuz! X3.2

© 2001-2013 Comsenz Inc.

快速回复 返回顶部 返回列表