磁力链接吧

 找回密码
 立即注册
搜索

[喜剧片] [BT下载]爱之咬痕 Love.Bite.2012.1080p.BluRay.x264.DTS-FGT 5.39GB

[复制链接]
电影首发 发表于 2016-3-15 08:31:00 | 显示全部楼层 |阅读模式

译  名 爱之咬痕
片  名 Love Bite
年  代 2012
国  家 英国
类  别 喜剧/恐怖
语  言 英语
上映日期 2012
导  演 Andy De Emmony
主  演 爱德华·斯皮伊尔斯 Ed Speleers
      杰西卡·斯佐尔 Jessica Szohr
      卢克·帕斯夸尼洛 Luke Pasqualino
      蒂莫西·斯波 Timothy Spall
      凯利斯顿·韦勒英 Kierston Wareing


简  介


  暑假里,男孩们白天打工晚上寻欢,这种生活令男主角杰米感到厌烦。直到他遇到美丽的旅行者朱丽安娜,他的世界才不再枯燥。不过随着朱丽安娜的到来,小镇上开始发生一些怪事:男孩们一个个地消失了。杰米被陌生人警告附近有狼人,而且它只捕食处男。流言传开,男孩们感到恐惧,怀疑狼人就在他们中间。而且从谈话中得知,其实他们都还是处男,一场血祭就要来临……



Video
ID                                       : 1
Format                                   : AVC
Format/Info                              : Advanced Video Codec
Format profile                           : [email protected]
Format settings, CABAC                   : Yes
Format settings, ReFrames                : 4 frames
Codec ID                                 : V_MPEG4/ISO/AVC
Duration                                 : 1h 30mn
Bit rate                                 : 6 841 Kbps
Width                                    : 1 920 pixels
Height                                   : 816 pixels
Display aspect ratio                     : 2.35:1
Frame rate mode                          : Constant
Frame rate                               : 24.000 fps
Color space                              : YUV
Chroma subsampling                       : 4:2:0
Bit depth                                : 8 bits
Scan type                                : Progressive
Bits/(Pixel*Frame)                       : 0.182
Stream size                              : 4.33 GiB (80%)
Writing library                          : x264 core 125 r2200 999b753
Encoding settings                        : cabac=1 / ref=1 / deblock=1:-2:-2 / analyse=0x1:0 / me=dia / subme=2 / psy=1 / psy_rd=1.20:0.00 / mixed_ref=0 / me_range=16 / chroma_me=1 / trellis=0 / 8x8dct=0 / cqm=0 / deadzone=21,11 / fast_pskip=1 / chroma_qp_offset=0 / threads=12 / lookahead_threads=2 / sliced_threads=0 / nr=0 / decimate=1 / interlaced=0 / bluray_compat=0 / constrained_intra=0 / bframes=4 / b_pyramid=2 / b_adapt=1 / b_bias=0 / direct=3 / weightb=1 / open_gop=0 / weightp=2 / keyint=250 / keyint_min=24 / scenecut=40 / intra_refresh=0 / rc_lookahead=40 / rc=crf / mbtree=1 / crf=17.0 / qcomp=0.60 / qpmin=15 / qpmax=69 / qpstep=4 / ip_ratio=1.40 / aq=1:1.00
Language                                 : English
Default                                  : Yes
Forced                                   : Yes

Audio
ID                                       : 2
Format                                   : DTS
Format/Info                              : Digital Theater Systems
Mode                                     : 16
Format settings, Endianness              : Big
Codec ID                                 : A_DTS
Duration                                 : 1h 30mn
Bit rate mode                            : Constant
Bit rate                                 : 1 509 Kbps
Channel(s)                               : 6 channels
Channel positions                        : Front: L C R, Side: L R, LFE
Sampling rate                            : 48.0 KHz
Frame rate                               : 93.750 fps (512 spf)
Bit depth                                : 24 bits
Compression mode                         : Lossy
Stream size                              : 978 MiB (18%)
Language                                 : English
Default                                  : No
Forced                                   : No

Menu
00:00:00.000                             : en:00:00:00.000
00:07:08.708                             : en:00:07:08.708
00:15:06.292                             : en:00:15:06.292
00:23:14.750                             : en:00:23:14.750
00:30:30.583                             : en:00:30:30.583
00:39:10.417                             : en:00:39:10.417
00:49:07.958                             : en:00:49:07.958
00:56:43.333                             : en:00:56:43.333
01:04:55.583                             : en:01:04:55.583
01:10:50.167                             : en:01:10:50.167
01:19:03.375                             : en:01:19:03.375
01:28:00.000                             : en:01:28:00.000





                                                                                                                                                                                                       

                                                                                                                       
                                                                                                                                                                                                                                                        Love.Bite.2012.1080p.BluRay.x264.DTS-FGT.torrent (54.52 KB, 下载次数: 26)

回复

使用道具 举报

小黑屋|磁力链接吧 |网站地图

本网站所有资源来自网络,如无意中侵犯了您的权益,请发邮件至 [email protected],立即清除相关链接

GMT+8, 2021-2-27 08:40 , Processed in 0.117145 second(s), 23 queries .

Powered by Discuz! X3.2

© 2001-2013 Comsenz Inc.

快速回复 返回顶部 返回列表