磁力链接吧

 找回密码
 立即注册
搜索

[剧情片] [BT下载]霹雳神风/大赛车/大奖 Grand.Prix.1966.1080p.BluRay.x264.DTS-FGT 11.9GB .. ...

[复制链接]
电影首发 发表于 2016-3-15 08:31:00 | 显示全部楼层 |阅读模式

译  名 霹雳神风/大赛车/大奖
片  名 Grand Prix
年  代 1966
国  家 美国
类  别 剧情/运动
语  言 英语/法语/意大利语/葡萄牙语/日语
上映日期 1966-12-21
片  长 176 分钟
导  演 约翰·弗兰克海默 John Frankenheimer
主  演 詹姆斯·加纳 James Garner
      爱娃·玛丽·森特 Eva Marie Saint
      伊夫·蒙当 Yves Montand
      三船敏郎 Toshirô Mifune


简  介


  约翰·弗兰肯海默执导,出演阵容强大,有詹姆斯.加纳、伊娃.玛丽.圣、伊维斯.蒙坦德、三船敏郎等影星。剧情讲述美国赛车选手毕特辗转参加蒙地卡罗及欧洲多国的大赛车,争夺世界总冠军。其间经历了一些感情与事业的波折,后来终于达成所愿。该片故事性淡薄,是一部大堆头的国际性赛车片。片中部分赛车镜头拍得十分紧张刺激,但制片时的分割银幕技术用得太粗糙,而且全片过长。


获奖情况


  第39届奥斯卡金像奖  (1967)
  最佳剪辑 Henry Berman / Fredric Steinkamp / Frank Santillo / Stu Linder
  最佳音响 富兰克林·米尔顿
  最佳音效 Gordon Daniel


Video
ID                                       : 1
Format                                   : AVC
Format/Info                              : Advanced Video Codec
Format profile                           : [email protected]
Format settings, CABAC                   : Yes
Format settings, ReFrames                : 4 frames
Codec ID                                 : V_MPEG4/ISO/AVC
Duration                                 : 2h 55mn
Bit rate                                 : 8 200 Kbps
Width                                    : 1 920 pixels
Height                                   : 868 pixels
Display aspect ratio                     : 2.2:1
Frame rate mode                          : Constant
Frame rate                               : 23.976 (24000/1001) fps
Color space                              : YUV
Chroma subsampling                       : 4:2:0
Bit depth                                : 8 bits
Scan type                                : Progressive
Bits/(Pixel*Frame)                       : 0.205
Stream size                              : 9.85 GiB (82%)
Writing library                          : x264 core 133 r2334 a3ac64b
Encoding settings                        : cabac=1 / ref=4 / deblock=1:-3:-3 / analyse=0x3:0x113 / me=umh / subme=11 / psy=1 / psy_rd=1.00:0.00 / mixed_ref=1 / me_range=48 / chroma_me=1 / trellis=2 / 8x8dct=1 / cqm=0 / deadzone=21,11 / fast_pskip=0 / chroma_qp_offset=-2 / threads=6 / lookahead_threads=1 / sliced_threads=0 / nr=0 / decimate=0 / interlaced=0 / bluray_compat=0 / constrained_intra=0 / bframes=8 / b_pyramid=2 / b_adapt=2 / b_bias=0 / direct=3 / weightb=1 / open_gop=0 / weightp=2 / keyint=240 / keyint_min=23 / scenecut=40 / intra_refresh=0 / rc_lookahead=40 / rc=2pass / mbtree=0 / bitrate=8200 / ratetol=1.0 / qcomp=0.60 / qpmin=0 / qpmax=69 / qpstep=4 / cplxblur=20.0 / qblur=0.5 / vbv_maxrate=50000 / vbv_bufsize=55000 / nal_hrd=none / ip_ratio=1.40 / pb_ratio=1.30 / aq=1:0.80
Language                                 : English
Default                                  : Yes
Forced                                   : No

Audio
ID                                       : 2
Format                                   : DTS
Format/Info                              : Digital Theater Systems
Mode                                     : 16
Format settings, Endianness              : Big
Codec ID                                 : A_DTS
Duration                                 : 2h 55mn
Bit rate mode                            : Constant
Bit rate                                 : 1 509 Kbps
Channel(s)                               : 6 channels
Channel positions                        : Front: L C R, Side: L R, LFE
Sampling rate                            : 48.0 KHz
Frame rate                               : 93.750 fps (512 spf)
Bit depth                                : 24 bits
Compression mode                         : Lossy
Stream size                              : 1.85 GiB (16%)
Language                                 : English
Default                                  : Yes
Forced                                   : No

Menu
00:00:00.000                             : :Chapter 01
00:04:36.775                             : :Chapter 02
00:08:50.820                             : :Chapter 03
00:13:19.882                             : :Chapter 04
00:17:23.459                             : :Chapter 05
00:21:48.015                             : :Chapter 06
00:24:42.563                             : :Chapter 07
00:29:19.382                             : :Chapter 08
00:34:16.012                             : :Chapter 09
00:38:16.377                             : :Chapter 10
00:41:34.116                             : :Chapter 11
00:43:39.241                             : :Chapter 12
00:46:56.063                             : :Chapter 13
00:53:30.248                             : :Chapter 14
00:57:43.293                             : :Chapter 15
00:59:49.919                             : :Chapter 16
01:03:51.285                             : :Chapter 17
01:07:17.992                             : :Chapter 18
01:12:20.711                             : :Chapter 19
01:16:06.395                             : :Chapter 20
01:21:37.600                             : :Chapter 21
01:25:04.765                             : :Chapter 22
01:27:39.963                             : :Chapter 23
01:33:28.853                             : :Chapter 24
01:40:51.712                             : :Chapter 25
01:44:25.842                             : :Chapter 26
01:44:50.242                             : :Chapter 27
01:46:25.378                             : :Chapter 28
01:50:49.934                             : :Chapter 29
01:57:52.064                             : :Chapter 30
02:01:11.555                             : :Chapter 31
02:06:46.223                             : :Chapter 32
02:09:58.499                             : :Chapter 33
02:14:17.257                             : :Chapter 34
02:17:10.263                             : :Chapter 35
02:21:12.379                             : :Chapter 36
02:23:32.186                             : :Chapter 37
02:28:36.949                             : :Chapter 38
02:30:45.619                             : :Chapter 39
02:33:28.949                             : :Chapter 40
02:38:27.664                             : :Chapter 41
02:43:33.595                             : :Chapter 42
02:47:18.236                             : :Chapter 43
02:50:45.067                             : :Chapter 44
02:54:57.861                             : :Chapter 45
02:55:57.629                             : :Chapter 46





                                                                                                                                                                                                       

                                                                                                                       
                                                                                                                                                                                                                                                        Grand.Prix.1966.1080p.BluRay.x264.DTS-FGT.torrent (60.29 KB, 下载次数: 31)

回复

使用道具 举报

小黑屋|磁力链接吧 |网站地图

本网站所有资源来自网络,如无意中侵犯了您的权益,请发邮件至 [email protected],立即清除相关链接

GMT+8, 2021-3-3 17:01 , Processed in 0.127564 second(s), 23 queries .

Powered by Discuz! X3.2

© 2001-2013 Comsenz Inc.

快速回复 返回顶部 返回列表