磁力链接吧

 找回密码
 立即注册
搜索

[上下格式] [BT下载]精灵旅社2[3D上下]2015.1080p.3D.BluRay.Half-OU.x264.DTS-HD.MA.5.1-RARBG 1 ...

[复制链接]
电影首发 发表于 2015-12-29 08:18:00 | 显示全部楼层 |阅读模式

译  名 精灵旅社2/尖叫旅社2(台)/鬼灵精怪大酒店2(港)/精灵旅店2
片  名 Hotel Transylvania 2
年  代 2015
国  家 美国
类  别 喜剧/动画/奇幻
语  言 英语
上映日期 2015-09-25(美国)/2015-10-27(中国大陆)
片  长 89分钟
导  演 格恩迪·塔塔科夫斯基 Genndy Tartakovsky
主  演 亚当·桑德勒 Adam Sandler
      安迪·萨姆伯格 Andy Samberg
      赛琳娜·戈麦斯 Selena Gomez
      凯文·詹姆斯 Kevin James
      大卫·斯佩德 David Spade
      史蒂夫·布西密 Steve Buscemi
      科甘·迈克尔·基 Keegan Michael Key
      莫莉·香侬 Molly Shannon
      梅尔·布鲁克斯 Mel Brooks
      法兰·德瑞雪 Fran Drescher
      阿什·布林克夫 Asher Blinkoff
      梅根·莫拉莉 Megan Mullally
      尼克·奥弗曼 Nick Offerman
      达纳·卡维 Dana Carvey
      罗伯·里格尔 Rob Riggle
      尼克·斯旺森 Nick Swardson


简  介


  经过一番艰难的考验,吊儿郎当的人类青年乔纳森(安迪·萨姆伯格 Andy Samberg 配音)终于和吸血鬼女郎梅菲丝(赛琳娜·戈麦斯 Selena Gomez 配音)携手走入婚姻的殿堂,而以梅菲丝的父亲德古拉(亚当·桑德勒 Adam Sandler 配音)为代表的怪物们,和人类的关系前所未有地密切起来。婚后不久,梅菲丝生下了可爱的儿子丹尼斯。小家伙一天天长大,外公德古拉对他疼爱有加,他热切期望丹尼斯能够成长为出色的吸血鬼。与之相对,梅菲丝认定儿子是一个普通的人类小孩,她希望能带丹尼斯走进文明社会,远离暴力血腥的怪物世界。为了阻止女儿一家的离开,德古拉想办法支走梅菲丝,同时叫上科学怪人、狼人、透明人、木乃伊等一帮死党,要在有限的时间里对丹尼斯展开一场吸血鬼养成教育集训。
  两代人的观念分歧,在怪物的世界中也不例外……


获奖情况


  第43届动画安妮奖 (2016)
  最佳分镜(提名)
  最佳动画效果(提名)
  最佳人物设计(提名)



  • Video
  • ID                                       : 1
  • Format                                   : AVC
  • Format/Info                              : Advanced Video Codec
  • Format profile                           : [email protected]
  • Format settings, CABAC                   : Yes
  • Format settings, ReFrames                : 2 frames
  • Codec ID                                 : V_MPEG4/ISO/AVC
  • Duration                                 : 1h 29mn
  • Nominal bit rate                         : 16.0 Mbps
  • Width                                    : 1 920 pixels
  • Height                                   : 1 080 pixels
  • Display aspect ratio                     : 16:9
  • Frame rate mode                          : Constant
  • Frame rate                               : 23.976 (24000/1001) fps
  • Color space                              : YUV
  • Chroma subsampling                       : 4:2:0
  • Bit depth                                : 8 bits
  • Scan type                                : Progressive
  • Bits/(Pixel*Frame)                       : 0.322
  • Title                                    : Hotel.Transylvania.2.2015.1080p.3D.BluRay.Half-OU.x264.DTS-HD.MA.5.1-RARBG
  • Writing library                          : x264 core 142
  • Encoding settings                        : cabac=1 / ref=1 / deblock=1:-1:-1 / analyse=0x3:0 / me=hex / subme=5 / psy=0 / mixed_ref=0 / me_range=16 / chroma_me=1 / trellis=0 / 8x8dct=1 / cqm=0 / deadzone=21,11 / fast_pskip=1 / chroma_qp_offset=0 / threads=8 / lookahead_threads=2 / sliced_threads=0 / nr=0 / decimate=1 / interlaced=0 / bluray_compat=0 / constrained_intra=0 / bframes=2 / b_pyramid=0 / b_adapt=1 / b_bias=0 / direct=1 / weightb=1 / open_gop=0 / weightp=0 / keyint=24 / keyint_min=13 / scenecut=40 / intra_refresh=0 / rc=abr / mbtree=0 / bitrate=16000 / ratetol=1.0 / qcomp=0.60 / qpmin=0 / qpmax=69 / qpstep=4 / ip_ratio=1.40 / pb_ratio=1.30 / aq=1:1.00
  • Default                                  : Yes
  • Forced                                   : No
  • Color range                              : Limited
  • Color primaries                          : BT.709
  • Transfer characteristics                 : BT.709
  • Matrix coefficients                      : BT.709


  • Audio #1
  • ID                                       : 2
  • Format                                   : DTS
  • Format/Info                              : Digital Theater Systems
  • Format profile                           : MA / Core
  • Mode                                     : 16
  • Format settings, Endianness              : Big
  • Codec ID                                 : A_DTS
  • Duration                                 : 1h 29mn
  • Bit rate mode                            : Variable / Constant
  • Bit rate                                 : Unknown / 1 509 Kbps
  • Channel(s)                               : 6 channels
  • Channel positions                        : Front: L C R, Side: L R, LFE
  • Sampling rate                            : 48.0 KHz
  • Frame rate                               : 93.750 fps (512 spf)
  • Bit depth                                : 16 bits
  • Compression mode                         : Lossless / Lossy
  • Title                                    : Hotel.Transylvania.2.2015.1080p.3D.BluRay.Half-OU.x264.DTS-HD.MA.5.1-RARBG
  • Language                                 : English
  • Default                                  : Yes
  • Forced                                   : No


  • Audio #2
  • ID                                       : 3
  • Format                                   : DTS
  • Format/Info                              : Digital Theater Systems
  • Mode                                     : 16
  • Format settings, Endianness              : Big
  • Codec ID                                 : A_DTS
  • Duration                                 : 1h 29mn
  • Bit rate mode                            : Constant
  • Bit rate                                 : 1 509 Kbps
  • Channel(s)                               : 6 channels
  • Channel positions                        : Front: L C R, Side: L R, LFE
  • Sampling rate                            : 48.0 KHz
  • Frame rate                               : 93.750 fps (512 spf)
  • Bit depth                                : 16 bits
  • Compression mode                         : Lossy
  • Stream size                              : 964 MiB (7%)
  • Title                                    : Hotel.Transylvania.2.2015.1080p.3D.BluRay.Half-OU.x264.DTS-HD.MA.5.1-RARBG
  • Language                                 : English
  • Default                                  : No
  • Forced                                   : No


  • Audio #3
  • ID                                       : 4
  • Format                                   : AC-3
  • Format/Info                              : Audio Coding 3
  • Mode extension                           : CM (complete main)
  • Format settings, Endianness              : Big
  • Codec ID                                 : A_AC3
  • Duration                                 : 1h 29mn
  • Bit rate mode                            : Constant
  • Bit rate                                 : 640 Kbps
  • Channel(s)                               : 6 channels
  • Channel positions                        : Front: L C R, Side: L R, LFE
  • Sampling rate                            : 48.0 KHz
  • Frame rate                               : 31.250 fps (1536 spf)
  • Compression mode                         : Lossy
  • Stream size                              : 409 MiB (3%)
  • Title                                    : Hotel.Transylvania.2.2015.1080p.3D.BluRay.Half-OU.x264.DTS-HD.MA.5.1-RARBG
  • Language                                 : English
  • Default                                  : No
  • Forced                                   : No


  • Audio #4
  • ID                                       : 5
  • Format                                   : AC-3
  • Format/Info                              : Audio Coding 3
  • Mode extension                           : CM (complete main)
  • Format settings, Endianness              : Big
  • Codec ID                                 : A_AC3
  • Duration                                 : 1h 29mn
  • Bit rate mode                            : Constant
  • Bit rate                                 : 640 Kbps
  • Channel(s)                               : 6 channels
  • Channel positions                        : Front: L C R, Side: L R, LFE
  • Sampling rate                            : 48.0 KHz
  • Frame rate                               : 31.250 fps (1536 spf)
  • Compression mode                         : Lossy
  • Stream size                              : 409 MiB (3%)
  • Title                                    : Hotel.Transylvania.2.2015.1080p.3D.BluRay.Half-OU.x264.DTS-HD.MA.5.1-RARBG
  • Language                                 : French
  • Default                                  : No
  • Forced                                   : No


  • Audio #5
  • ID                                       : 6
  • Format                                   : AC-3
  • Format/Info                              : Audio Coding 3
  • Mode extension                           : CM (complete main)
  • Format settings, Endianness              : Big
  • Codec ID                                 : A_AC3
  • Duration                                 : 1h 29mn
  • Bit rate mode                            : Constant
  • Bit rate                                 : 640 Kbps
  • Channel(s)                               : 6 channels
  • Channel positions                        : Front: L C R, Side: L R, LFE
  • Sampling rate                            : 48.0 KHz
  • Frame rate                               : 31.250 fps (1536 spf)
  • Compression mode                         : Lossy
  • Stream size                              : 409 MiB (3%)
  • Title                                    : Hotel.Transylvania.2.2015.1080p.3D.BluRay.Half-OU.x264.DTS-HD.MA.5.1-RARBG
  • Language                                 : French
  • Default                                  : No
  • Forced                                   : No


  • Audio #6
  • ID                                       : 7
  • Format                                   : AC-3
  • Format/Info                              : Audio Coding 3
  • Mode extension                           : CM (complete main)
  • Format settings, Endianness              : Big
  • Codec ID                                 : A_AC3
  • Duration                                 : 1h 29mn
  • Bit rate mode                            : Constant
  • Bit rate                                 : 640 Kbps
  • Channel(s)                               : 6 channels
  • Channel positions                        : Front: L C R, Side: L R, LFE
  • Sampling rate                            : 48.0 KHz
  • Frame rate                               : 31.250 fps (1536 spf)
  • Compression mode                         : Lossy
  • Stream size                              : 409 MiB (3%)
  • Title                                    : Hotel.Transylvania.2.2015.1080p.3D.BluRay.Half-OU.x264.DTS-HD.MA.5.1-RARBG
  • Language                                 : Spanish
  • Default                                  : No
  • Forced                                   : No


  • Audio #7
  • ID                                       : 8
  • Format                                   : AC-3
  • Format/Info                              : Audio Coding 3
  • Mode extension                           : CM (complete main)
  • Format settings, Endianness              : Big
  • Codec ID                                 : A_AC3
  • Duration                                 : 1h 29mn
  • Bit rate mode                            : Constant
  • Bit rate                                 : 192 Kbps
  • Channel(s)                               : 2 channels
  • Channel positions                        : Front: L R
  • Sampling rate                            : 48.0 KHz
  • Frame rate                               : 31.250 fps (1536 spf)
  • Compression mode                         : Lossy
  • Stream size                              : 123 MiB (1%)
  • Title                                    : Hotel.Transylvania.2.2015.1080p.3D.BluRay.Half-OU.x264.DTS-HD.MA.5.1-RARBG
  • Language                                 : English
  • Default                                  : No
  • Forced                                   : No


  • Audio #8
  • ID                                       : 9
  • Format                                   : AC-3
  • Format/Info                              : Audio Coding 3
  • Mode extension                           : CM (complete main)
  • Format settings, Endianness              : Big
  • Codec ID                                 : A_AC3
  • Duration                                 : 1h 29mn
  • Bit rate mode                            : Constant
  • Bit rate                                 : 192 Kbps
  • Channel(s)                               : 2 channels
  • Channel positions                        : Front: L R
  • Sampling rate                            : 48.0 KHz
  • Frame rate                               : 31.250 fps (1536 spf)
  • Compression mode                         : Lossy
  • Stream size                              : 123 MiB (1%)
  • Title                                    : Hotel.Transylvania.2.2015.1080p.3D.BluRay.Half-OU.x264.DTS-HD.MA.5.1-RARBG
  • Language                                 : English
  • Default                                  : No
  • Forced                                   : No


  • Text #1
  • ID                                       : 10
  • Format                                   : PGS
  • Muxing mode                              : zlib
  • Codec ID                                 : S_HDMV/PGS
  • Codec ID/Info                            : Picture based subtitle format used on BDs/HD-DVDs
  • Language                                 : English
  • Default                                  : No
  • Forced                                   : No


  • Text #2
  • ID                                       : 11
  • Format                                   : PGS
  • Muxing mode                              : zlib
  • Codec ID                                 : S_HDMV/PGS
  • Codec ID/Info                            : Picture based subtitle format used on BDs/HD-DVDs
  • Language                                 : English
  • Default                                  : No
  • Forced                                   : No


  • Text #3
  • ID                                       : 12
  • Format                                   : PGS
  • Muxing mode                              : zlib
  • Codec ID                                 : S_HDMV/PGS
  • Codec ID/Info                            : Picture based subtitle format used on BDs/HD-DVDs
  • Language                                 : French
  • Default                                  : No
  • Forced                                   : No


  • Text #4
  • ID                                       : 13
  • Format                                   : PGS
  • Muxing mode                              : zlib
  • Codec ID                                 : S_HDMV/PGS
  • Codec ID/Info                            : Picture based subtitle format used on BDs/HD-DVDs
  • Language                                 : Spanish
  • Default                                  : No
  • Forced                                   : No


  • Text #5
  • ID                                       : 14
  • Format                                   : PGS
  • Muxing mode                              : zlib
  • Codec ID                                 : S_HDMV/PGS
  • Codec ID/Info                            : Picture based subtitle format used on BDs/HD-DVDs
  • Language                                 : English
  • Default                                  : No
  • Forced                                   : No


  • Text #6
  • ID                                       : 15
  • Format                                   : PGS
  • Muxing mode                              : zlib
  • Codec ID                                 : S_HDMV/PGS
  • Codec ID/Info                            : Picture based subtitle format used on BDs/HD-DVDs
  • Language                                 : Spanish
  • Default                                  : No
  • Forced                                   : No


  • Text #7
  • ID                                       : 16
  • Format                                   : PGS
  • Muxing mode                              : zlib
  • Codec ID                                 : S_HDMV/PGS
  • Codec ID/Info                            : Picture based subtitle format used on BDs/HD-DVDs
  • Language                                 : English
  • Default                                  : No
  • Forced                                   : No


  • Text #8
  • ID                                       : 17
  • Format                                   : PGS
  • Muxing mode                              : zlib
  • Codec ID                                 : S_HDMV/PGS
  • Codec ID/Info                            : Picture based subtitle format used on BDs/HD-DVDs
  • Language                                 : Spanish
  • Default                                  : No
  • Forced                                   : No


  • Text #9
  • ID                                       : 18
  • Format                                   : PGS
  • Muxing mode                              : zlib
  • Codec ID                                 : S_HDMV/PGS
  • Codec ID/Info                            : Picture based subtitle format used on BDs/HD-DVDs
  • Language                                 : French
  • Default                                  : No
  • Forced                                   : No


  • Menu
  • 00:00:00.000                             : en01)00:00:00:000
  • 00:05:46.471                             : en02)00:05:46:471
  • 00:09:17.640                             : en03)00:09:17:640
  • 00:13:09.705                             : en04)00:13:09:705
  • 00:19:29.126                             : en05)00:19:29:126
  • 00:22:42.569                             : en06)00:22:42:569
  • 00:30:05.303                             : en07)00:30:05:303
  • 00:36:12.712                             : en000:36:12:712
  • 00:40:00.981                             : en09)00:40:00:981
  • 00:45:54.376                             : en10)00:45:54:376
  • 00:51:22.454                             : en11)00:51:22:454
  • 00:56:54.911                             : en12)00:56:54:911
  • 01:04:01.921                             : en13)01:04:01:921
  • 01:08:32.817                             : en14)01:08:32:817
  • 01:13:29.405                             : en15)01:13:29:405
  • 01:18:35.877                             : en16)01:18:35:877





                                                                                                                       
                                                                                                                                                                                                                                                        Hotel.Transylvania.2.2015.1080p.3D.BluRay.Half-OU.x264.DTS-HD.MA.5.1-RARBG.torrent (72.5 KB, 下载次数: 69)

回复

使用道具 举报

小黑屋|磁力链接吧 |网站地图

本网站所有资源来自网络,如无意中侵犯了您的权益,请发邮件至 [email protected],立即清除相关链接

GMT+8, 2020-6-7 09:36 , Processed in 0.072357 second(s), 23 queries .

Powered by Discuz! X3.2

© 2001-2013 Comsenz Inc.

快速回复 返回顶部 返回列表