磁力链接吧

 找回密码
 立即注册
搜索

[左右格式] 小飞侠:幻梦启航/彼得·潘[3D左右]2015.1080p.3D.BluRay.Half-SBS.x264.DTS-HD.MA.7.1 ...

[复制链接]
电影首发 发表于 2015-12-13 08:08:00 | 显示全部楼层 |阅读模式
自带中字

译  名 小飞侠:幻梦启航/潘恩:航向梦幻岛(台)/小飞侠:魔幻始源(港)/彼得·潘/小飞侠
片  名 Pan
年  代 2015
国  家 美国/英国/澳大利亚
类  别 奇幻/冒险
语  言 英语
上映日期 2015-10-09(美国)/2015-10-22(中国大陆)
片  长 111分钟
导  演 乔·赖特 Joe Wright
主  演 休·杰克曼 Hugh Jackman
      莱维·米勒 Levi Miller
      加内特·赫德兰 Garrett Hedlund
      鲁妮·玛拉 Rooney Mara
      阿曼达·塞弗里德 Amanda Seyfried
      阿迪勒·阿赫塔尔 Adeel Akhtar
      卡拉·迪瓦伊 Cara Delevingne
      侬索·阿诺斯 Nonso Anozie
      凯西·伯克 Kathy Burke
      罗泰柱 Tae-joo Na
      杰克·查尔斯 Jack Charles
      布隆森·韦伯 Bronson Webb
      吉米·维 Jimmy Vee
      斯宾塞·怀尔丁 Spencer Wilding
      布莱恩·博维尔 Brian Bovell
      迈克·谢泼德 Mike Shepherd
      刘易斯·麦克杜格尔 Lewis MacDougall


简  介


  彼得·潘(莱维·米勒 Levi Miller 饰)是一个淘气的12岁小男孩,他是孤儿院院长眼中的头痛人物,因为他经常有叛逆的行为,这使他在成长的伦敦孤儿院中,显得特立独行。一个不寻常的夜里,彼得从孤儿院被带走,来到了一个名叫"梦幻岛"地方——一个充满海盗、战士与精灵的神奇国度。在梦幻岛上,他经历了许多惊心动魄的冒险和生死一线的对决,但这一切似乎与当年将他留在孤儿院的生母有关,在重重的谜团下,他与女战士虎莲公主(鲁妮·玛拉 Rooney Mara 饰)以及新朋友胡克船长(加内特·赫德兰 Garrett Hedlund 饰)结成盟友,一起面对一项古老的预言。预言中有一个佩戴着牧笛项链的勇士来到梦幻岛,他将带领所有人一起对抗邪恶的海盗黑胡子船长(休·杰克曼 Hugh Jackman 饰),但是只有12岁的小男孩彼得,是那个能够打败海盗黑胡子船长的勇士吗?
  影片改编自英国作家詹姆斯·巴利的著名剧作 《彼得·潘》。





  • Video
  • ID                                       : 1
  • Format                                   : AVC
  • Format/Info                              : Advanced Video Codec
  • Format profile                           : [email protected]
  • Format settings, CABAC                   : Yes
  • Format settings, ReFrames                : 2 frames
  • Codec ID                                 : V_MPEG4/ISO/AVC
  • Duration                                 : 1h 51mn
  • Nominal bit rate                         : 15.5 Mbps
  • Width                                    : 1 920 pixels
  • Height                                   : 1 080 pixels
  • Display aspect ratio                     : 16:9
  • Frame rate mode                          : Constant
  • Frame rate                               : 23.976 fps
  • Color space                              : YUV
  • Chroma subsampling                       : 4:2:0
  • Bit depth                                : 8 bits
  • Scan type                                : Progressive
  • Bits/(Pixel*Frame)                       : 0.312
  • Title                                    : Pan.2015.1080p.3D.BluRay.Half-SBS.x264.DTS-HD.MA.7.1-RARBG
  • Writing library                          : x264 core 142
  • Encoding settings                        : cabac=1 / ref=1 / deblock=1:-1:-1 / analyse=0x3:0 / me=hex / subme=5 / psy=0 / mixed_ref=0 / me_range=16 / chroma_me=1 / trellis=0 / 8x8dct=1 / cqm=0 / deadzone=21,11 / fast_pskip=1 / chroma_qp_offset=0 / threads=8 / lookahead_threads=2 / sliced_threads=0 / nr=0 / decimate=1 / interlaced=0 / bluray_compat=0 / constrained_intra=0 / bframes=2 / b_pyramid=0 / b_adapt=1 / b_bias=0 / direct=1 / weightb=1 / open_gop=0 / weightp=0 / keyint=24 / keyint_min=13 / scenecut=40 / intra_refresh=0 / rc=abr / mbtree=0 / bitrate=15500 / ratetol=1.0 / qcomp=0.60 / qpmin=0 / qpmax=69 / qpstep=4 / ip_ratio=1.40 / pb_ratio=1.30 / aq=1:1.00
  • Default                                  : Yes
  • Forced                                   : No
  • Color range                              : Limited
  • Color primaries                          : BT.709
  • Transfer characteristics                 : BT.709
  • Matrix coefficients                      : BT.709


  • Audio #1
  • ID                                       : 2
  • Format                                   : DTS
  • Format/Info                              : Digital Theater Systems
  • Format profile                           : MA / Core
  • Mode                                     : 16
  • Format settings, Endianness              : Big
  • Codec ID                                 : A_DTS
  • Duration                                 : 1h 51mn
  • Bit rate mode                            : Variable
  • Bit rate                                 : 5250 / 1 509 Kbps
  • Channel(s)                               : 8 channels / 6 channels
  • Channel positions                        : Front: L C R, Side: L R, Back: L R, LFE / Front: L C R, Side: L R, LFE
  • Sampling rate                            : 48.0 KHz
  • Bit depth                                : 24 bits
  • Compression mode                         : Lossless / Lossy
  • Title                                    : Pan.2015.1080p.3D.BluRay.Half-SBS.x264.DTS-HD.MA.7.1-RARBG
  • Language                                 : English
  • Default                                  : Yes
  • Forced                                   : No


  • Audio #2
  • ID                                       : 3
  • Format                                   : AC-3
  • Format/Info                              : Audio Coding 3
  • Mode extension                           : CM (complete main)
  • Format settings, Endianness              : Big
  • Codec ID                                 : A_AC3
  • Duration                                 : 1h 51mn
  • Bit rate mode                            : Constant
  • Bit rate                                 : 640 Kbps
  • Channel(s)                               : 6 channels
  • Channel positions                        : Front: L C R, Side: L R, LFE
  • Sampling rate                            : 48.0 KHz
  • Compression mode                         : Lossy
  • Stream size                              : 511 MiB (3%)
  • Title                                    : Pan.2015.1080p.3D.BluRay.Half-SBS.x264.DTS-HD.MA.7.1-RARBG
  • Language                                 : English
  • Default                                  : No
  • Forced                                   : No


  • Audio #3
  • ID                                       : 4
  • Format                                   : AC-3
  • Format/Info                              : Audio Coding 3
  • Mode extension                           : CM (complete main)
  • Format settings, Endianness              : Big
  • Codec ID                                 : A_AC3
  • Duration                                 : 1h 51mn
  • Bit rate mode                            : Constant
  • Bit rate                                 : 640 Kbps
  • Channel(s)                               : 6 channels
  • Channel positions                        : Front: L C R, Side: L R, LFE
  • Sampling rate                            : 48.0 KHz
  • Compression mode                         : Lossy
  • Stream size                              : 511 MiB (3%)
  • Title                                    : Pan.2015.1080p.3D.BluRay.Half-SBS.x264.DTS-HD.MA.7.1-RARBG
  • Language                                 : English
  • Default                                  : No
  • Forced                                   : No


  • Audio #4
  • ID                                       : 5
  • Format                                   : AC-3
  • Format/Info                              : Audio Coding 3
  • Mode extension                           : CM (complete main)
  • Format settings, Endianness              : Big
  • Codec ID                                 : A_AC3
  • Duration                                 : 1h 51mn
  • Bit rate mode                            : Constant
  • Bit rate                                 : 640 Kbps
  • Channel(s)                               : 6 channels
  • Channel positions                        : Front: L C R, Side: L R, LFE
  • Sampling rate                            : 48.0 KHz
  • Compression mode                         : Lossy
  • Stream size                              : 511 MiB (3%)
  • Title                                    : Pan.2015.1080p.3D.BluRay.Half-SBS.x264.DTS-HD.MA.7.1-RARBG
  • Language                                 : French
  • Default                                  : No
  • Forced                                   : No


  • Audio #5
  • ID                                       : 6
  • Format                                   : AC-3
  • Format/Info                              : Audio Coding 3
  • Mode extension                           : CM (complete main)
  • Format settings, Endianness              : Big
  • Codec ID                                 : A_AC3
  • Duration                                 : 1h 51mn
  • Bit rate mode                            : Constant
  • Bit rate                                 : 640 Kbps
  • Channel(s)                               : 6 channels
  • Channel positions                        : Front: L C R, Side: L R, LFE
  • Sampling rate                            : 48.0 KHz
  • Compression mode                         : Lossy
  • Stream size                              : 511 MiB (3%)
  • Title                                    : Pan.2015.1080p.3D.BluRay.Half-SBS.x264.DTS-HD.MA.7.1-RARBG
  • Language                                 : Chinese
  • Default                                  : No
  • Forced                                   : No


  • Audio #6
  • ID                                       : 7
  • Format                                   : AC-3
  • Format/Info                              : Audio Coding 3
  • Mode extension                           : CM (complete main)
  • Format settings, Endianness              : Big
  • Codec ID                                 : A_AC3
  • Duration                                 : 1h 51mn
  • Bit rate mode                            : Constant
  • Bit rate                                 : 640 Kbps
  • Channel(s)                               : 6 channels
  • Channel positions                        : Front: L C R, Side: L R, LFE
  • Sampling rate                            : 48.0 KHz
  • Compression mode                         : Lossy
  • Stream size                              : 511 MiB (3%)
  • Title                                    : Pan.2015.1080p.3D.BluRay.Half-SBS.x264.DTS-HD.MA.7.1-RARBG
  • Language                                 : Spanish
  • Default                                  : No
  • Forced                                   : No


  • Audio #7
  • ID                                       : 8
  • Format                                   : AC-3
  • Format/Info                              : Audio Coding 3
  • Mode extension                           : CM (complete main)
  • Format settings, Endianness              : Big
  • Codec ID                                 : A_AC3
  • Duration                                 : 1h 51mn
  • Bit rate mode                            : Constant
  • Bit rate                                 : 640 Kbps
  • Channel(s)                               : 6 channels
  • Channel positions                        : Front: L C R, Side: L R, LFE
  • Sampling rate                            : 48.0 KHz
  • Compression mode                         : Lossy
  • Stream size                              : 511 MiB (3%)
  • Title                                    : Pan.2015.1080p.3D.BluRay.Half-SBS.x264.DTS-HD.MA.7.1-RARBG
  • Language                                 : Portuguese
  • Default                                  : No
  • Forced                                   : No


  • Audio #8
  • ID                                       : 9
  • Format                                   : AC-3
  • Format/Info                              : Audio Coding 3
  • Mode extension                           : CM (complete main)
  • Format settings, Endianness              : Big
  • Codec ID                                 : A_AC3
  • Duration                                 : 1h 51mn
  • Bit rate mode                            : Constant
  • Bit rate                                 : 640 Kbps
  • Channel(s)                               : 6 channels
  • Channel positions                        : Front: L C R, Side: L R, LFE
  • Sampling rate                            : 48.0 KHz
  • Compression mode                         : Lossy
  • Stream size                              : 511 MiB (3%)
  • Title                                    : Pan.2015.1080p.3D.BluRay.Half-SBS.x264.DTS-HD.MA.7.1-RARBG
  • Language                                 : Thai
  • Default                                  : No
  • Forced                                   : No


  • Text #1
  • ID                                       : 10
  • Format                                   : PGS
  • Muxing mode                              : zlib
  • Codec ID                                 : S_HDMV/PGS
  • Codec ID/Info                            : Picture based subtitle format used on BDs/HD-DVDs
  • Language                                 : English
  • Default                                  : No
  • Forced                                   : No


  • Text #2
  • ID                                       : 11
  • Format                                   : PGS
  • Muxing mode                              : zlib
  • Codec ID                                 : S_HDMV/PGS
  • Codec ID/Info                            : Picture based subtitle format used on BDs/HD-DVDs
  • Language                                 : French
  • Default                                  : No
  • Forced                                   : No


  • Text #3
  • ID                                       : 12
  • Format                                   : PGS
  • Muxing mode                              : zlib
  • Codec ID                                 : S_HDMV/PGS
  • Codec ID/Info                            : Picture based subtitle format used on BDs/HD-DVDs
  • Language                                 : Chinese
  • Default                                  : No
  • Forced                                   : No


  • Text #4
  • ID                                       : 13
  • Format                                   : PGS
  • Muxing mode                              : zlib
  • Codec ID                                 : S_HDMV/PGS
  • Codec ID/Info                            : Picture based subtitle format used on BDs/HD-DVDs
  • Language                                 : Chinese
  • Default                                  : No
  • Forced                                   : No


  • Text #5
  • ID                                       : 14
  • Format                                   : PGS
  • Muxing mode                              : zlib
  • Codec ID                                 : S_HDMV/PGS
  • Codec ID/Info                            : Picture based subtitle format used on BDs/HD-DVDs
  • Language                                 : Chinese
  • Default                                  : No
  • Forced                                   : No


  • Text #6
  • ID                                       : 15
  • Format                                   : PGS
  • Muxing mode                              : zlib
  • Codec ID                                 : S_HDMV/PGS
  • Codec ID/Info                            : Picture based subtitle format used on BDs/HD-DVDs
  • Language                                 : Korean
  • Default                                  : No
  • Forced                                   : No


  • Text #7
  • ID                                       : 16
  • Format                                   : PGS
  • Muxing mode                              : zlib
  • Codec ID                                 : S_HDMV/PGS
  • Codec ID/Info                            : Picture based subtitle format used on BDs/HD-DVDs
  • Language                                 : Spanish
  • Default                                  : No
  • Forced                                   : No


  • Text #8
  • ID                                       : 17
  • Format                                   : PGS
  • Muxing mode                              : zlib
  • Codec ID                                 : S_HDMV/PGS
  • Codec ID/Info                            : Picture based subtitle format used on BDs/HD-DVDs
  • Language                                 : Portuguese
  • Default                                  : No
  • Forced                                   : No


  • Text #9
  • ID                                       : 18
  • Format                                   : PGS
  • Muxing mode                              : zlib
  • Codec ID                                 : S_HDMV/PGS
  • Codec ID/Info                            : Picture based subtitle format used on BDs/HD-DVDs
  • Language                                 : Thai
  • Default                                  : No
  • Forced                                   : No


  • Text #10
  • ID                                       : 19
  • Format                                   : PGS
  • Muxing mode                              : zlib
  • Codec ID                                 : S_HDMV/PGS
  • Codec ID/Info                            : Picture based subtitle format used on BDs/HD-DVDs
  • Language                                 : Spanish
  • Default                                  : No
  • Forced                                   : No


  • Text #11
  • ID                                       : 20
  • Format                                   : PGS
  • Muxing mode                              : zlib
  • Codec ID                                 : S_HDMV/PGS
  • Codec ID/Info                            : Picture based subtitle format used on BDs/HD-DVDs
  • Language                                 : Portuguese
  • Default                                  : No
  • Forced                                   : No


  • Menu
  • 00:00:00.000                             : en01)00:00:00:000
  • 00:10:28.419                             : en02)00:10:28:419
  • 00:19:45.851                             : en03)00:19:45:851
  • 00:31:07.282                             : en04)00:31:07:282
  • 00:39:14.060                             : en05)00:39:14:060
  • 00:48:27.863                             : en06)00:48:27:863
  • 01:00:07.562                             : en07)01:00:07:562
  • 01:09:29.373                             : en001:09:29:373
  • 01:20:12.808                             : en09)01:20:12:808
  • 01:30:02.897                             : en10)01:30:02:897
  • 01:39:51.026                             : en11)01:39:51:026
  • 01:43:05.888                             : en12)01:43:05:888





                                                                                                                       
                                                                                                                                                                                                                                                        Pan.2015.1080p.3D.BluRay.Half-SBS.x264.DTS-HD.MA.7.1-RARBG.torrent (96.12 KB, 下载次数: 719)

回复

使用道具 举报

小黑屋|磁力链接吧 |网站地图

本网站所有资源来自网络,如无意中侵犯了您的权益,请发邮件至 [email protected],立即清除相关链接

GMT+8, 2020-6-7 07:56 , Processed in 0.075456 second(s), 23 queries .

Powered by Discuz! X3.2

© 2001-2013 Comsenz Inc.

快速回复 返回顶部 返回列表